TAMILMOVIEROCKERS
Ticket Torrents
Go Back   TAMILMOVIEROCKERS > -: Other Releases :- > Telugu Releases - (Free Leech Except DVD-R) > DVD-Rips
Reload this Page KRISHNA (2008) - DVD9Rip - 720P - x264 - DTS - Esubs - Chapters -By-MANOJ
Reply
 
Thread Tools Display Modes
(#41)
Old
Ajjubhai Ajjubhai is offline
TMR Member
Points: 1,135, Level: 8
Points: 1,135, Level: 8 Points: 1,135, Level: 8 Points: 1,135, Level: 8
Level up: 93%, 15 Points needed
Level up: 93% Level up: 93% Level up: 93%
Activity: 0%
Activity: 0% Activity: 0% Activity: 0%

   
Join Date: Jun 2019
Posts: 77
Rep Power: 3
Ajjubhai is an unknown quantity at this point
UL: 5.00 gb DL: 6.50 gb Ratio: 0.77
Default 16th-June-2019

Quote:
Originally Posted by Maruthi673 View Post
KRISHNA (2008) - DVD9Rip - 720P - x264 - DTS - Esubs - Chapters

Complete name : KRISHNA (2008) - DVD9Rip - 720P - x264 - DTS - Esubs - Chapters
Format : Matroska
Format version : Version 2
File size : 4.11 GiB
Duration : 2h 26mn
Overall bit rate : 4 023 Kbps
Encoded date : UTC 2015-03-23 03:48:21
Writing application : mkvmerge v5.8.0 ('No Sleep / Pillow') built on Sep 2 2012 15:37:04
Writing library : libebml v1.2.3 + libmatroska v1.3.0

Video
ID : 1
Format : AVC
Format/Info : Advanced Video Codec
Format profile : [email protected]
Format settings, CABAC : Yes
Format settings, ReFrames : 4 frames
Muxing mode : Header stripping
Codec ID : V_MPEG4/ISO/AVC
Duration : 2h 26mn
Bit rate : 3 271 Kbps
Width : 1 280 pixels
Height : 544 pixels
Display aspect ratio : 2.35:1
Frame rate : 23.976 fps
Color space : YUV
Chroma subsampling : 4:2:0
Bit depth : 8 bits
Scan type : Progressive
Bits/(Pixel*Frame) : 0.196
Stream size : 3.25 GiB (79%)
Writing library : x264 core 130 r2273 b3065e6

Audio
ID : 2
Format : DTS
Format/Info : Digital Theater Systems
Muxing mode : Header stripping
Codec ID : A_DTS
Duration : 2h 26mn
Bit rate mode : Constant
Bit rate : 755 Kbps
Channel(s) : 6 channels
Channel positions : Front: L C R, Side: L R, LFE
Sampling rate : 48.0 KHz
Bit depth : 16 bits
Compression mode : Lossy
Delay relative to video : 14s 598ms
Stream size : 789 MiB (19%)

Text
ID : 3
Format : UTF-8
Codec ID : S_TEXT/UTF8
Codec ID/Info : UTF-8 Plain Text

Menu
00:00:00.000 : en:Chapter 01
00:02:24.200 : en:Chapter 02
00:11:35.333 : en:Chapter 03
00:15:04.700 : en:Chapter 04
00:23:03.401 : en:Chapter 05
00:36:19.302 : en:Chapter 06
00:41:27.903 : en:Chapter 07
00:45:42.203 : en:Chapter 08
00:50:00.270 : en:Chapter 09
00:54:14.004 : en:Chapter 10
01:01:30.037 : en:Chapter 11
01:05:15.671 : en:Chapter 12
01:10:44.272 : en:Chapter 13
01:24:39.340 : en:Chapter 14
01:31:03.574 : en:Chapter 15
01:35:37.908 : en:Chapter 16
01:43:30.275 : en:Chapter 17
01:53:39.942 : en:Chapter 18
01:58:15.442 : en:Chapter 19
02:11:35.809 : en:Chapter 20
02:16:27.510 : en:Chapter 21
02:24:12.877 : en:Chapter 22
02:25:57.877 : en:Chapter 23







Thanks for the share




Reply With Quote
(#42)
Old
Ajjubhai Ajjubhai is offline
TMR Member
Points: 1,135, Level: 8
Points: 1,135, Level: 8 Points: 1,135, Level: 8 Points: 1,135, Level: 8
Level up: 93%, 15 Points needed
Level up: 93% Level up: 93% Level up: 93%
Activity: 0%
Activity: 0% Activity: 0% Activity: 0%

   
Join Date: Jun 2019
Posts: 77
Rep Power: 3
Ajjubhai is an unknown quantity at this point
UL: 5.00 gb DL: 6.50 gb Ratio: 0.77
Default 12th-January-2020

Quote:
Originally Posted by Maruthi673 View Post
KRISHNA (2008) - DVD9Rip - 720P - x264 - DTS - Esubs - Chapters

Complete name : KRISHNA (2008) - DVD9Rip - 720P - x264 - DTS - Esubs - Chapters
Format : Matroska
Format version : Version 2
File size : 4.11 GiB
Duration : 2h 26mn
Overall bit rate : 4 023 Kbps
Encoded date : UTC 2015-03-23 03:48:21
Writing application : mkvmerge v5.8.0 ('No Sleep / Pillow') built on Sep 2 2012 15:37:04
Writing library : libebml v1.2.3 + libmatroska v1.3.0

Video
ID : 1
Format : AVC
Format/Info : Advanced Video Codec
Format profile : [email protected]
Format settings, CABAC : Yes
Format settings, ReFrames : 4 frames
Muxing mode : Header stripping
Codec ID : V_MPEG4/ISO/AVC
Duration : 2h 26mn
Bit rate : 3 271 Kbps
Width : 1 280 pixels
Height : 544 pixels
Display aspect ratio : 2.35:1
Frame rate : 23.976 fps
Color space : YUV
Chroma subsampling : 4:2:0
Bit depth : 8 bits
Scan type : Progressive
Bits/(Pixel*Frame) : 0.196
Stream size : 3.25 GiB (79%)
Writing library : x264 core 130 r2273 b3065e6

Audio
ID : 2
Format : DTS
Format/Info : Digital Theater Systems
Muxing mode : Header stripping
Codec ID : A_DTS
Duration : 2h 26mn
Bit rate mode : Constant
Bit rate : 755 Kbps
Channel(s) : 6 channels
Channel positions : Front: L C R, Side: L R, LFE
Sampling rate : 48.0 KHz
Bit depth : 16 bits
Compression mode : Lossy
Delay relative to video : 14s 598ms
Stream size : 789 MiB (19%)

Text
ID : 3
Format : UTF-8
Codec ID : S_TEXT/UTF8
Codec ID/Info : UTF-8 Plain Text

Menu
00:00:00.000 : en:Chapter 01
00:02:24.200 : en:Chapter 02
00:11:35.333 : en:Chapter 03
00:15:04.700 : en:Chapter 04
00:23:03.401 : en:Chapter 05
00:36:19.302 : en:Chapter 06
00:41:27.903 : en:Chapter 07
00:45:42.203 : en:Chapter 08
00:50:00.270 : en:Chapter 09
00:54:14.004 : en:Chapter 10
01:01:30.037 : en:Chapter 11
01:05:15.671 : en:Chapter 12
01:10:44.272 : en:Chapter 13
01:24:39.340 : en:Chapter 14
01:31:03.574 : en:Chapter 15
01:35:37.908 : en:Chapter 16
01:43:30.275 : en:Chapter 17
01:53:39.942 : en:Chapter 18
01:58:15.442 : en:Chapter 19
02:11:35.809 : en:Chapter 20
02:16:27.510 : en:Chapter 21
02:24:12.877 : en:Chapter 22
02:25:57.877 : en:Chapter 23







Thanks for the




Reply With Quote
(#43)
Old
MVBABU MVBABU is offline
TMR Member
Points: 467, Level: 5
Points: 467, Level: 5 Points: 467, Level: 5 Points: 467, Level: 5
Level up: 17%, 83 Points needed
Level up: 17% Level up: 17% Level up: 17%
Activity: 22.2%
Activity: 22.2% Activity: 22.2% Activity: 22.2%

   
Join Date: Mar 2020
Posts: 33
Rep Power: 2
MVBABU is an unknown quantity at this point
UL: 5.00 gb DL: 0.00 b Ratio: -
Default 19th-March-2020

Nice share




Reply With Quote
(#44)
Old
Sai Manikanta Sai Manikanta is offline
TMR Member
Points: 1,604, Level: 11
Points: 1,604, Level: 11 Points: 1,604, Level: 11 Points: 1,604, Level: 11
Level up: 18%, 246 Points needed
Level up: 18% Level up: 18% Level up: 18%
Activity: 0%
Activity: 0% Activity: 0% Activity: 0%

   
Join Date: Apr 2018
Posts: 217
Rep Power: 4
Sai Manikanta is an unknown quantity at this point
UL: 32.69 gb DL: 70.70 gb Ratio: 0.46
Default 30th-September-2020

Reseed please




Reply With Quote
(#45)
Old
Jack213822 Jack213822 is offline
TMR Member
Points: 933, Level: 7
Points: 933, Level: 7 Points: 933, Level: 7 Points: 933, Level: 7
Level up: 92%, 17 Points needed
Level up: 92% Level up: 92% Level up: 92%
Activity: 0%
Activity: 0% Activity: 0% Activity: 0%

   
Join Date: Sep 2019
Posts: 92
Rep Power: 3
Jack213822 is an unknown quantity at this point
UL: 5.00 gb DL: 6.30 gb Ratio: 0.79
Default thanks plz seed - 20th-November-2020

thanks plz seed




Reply With Quote
(#46)
Old
Sai Manikanta Sai Manikanta is offline
TMR Member
Points: 1,604, Level: 11
Points: 1,604, Level: 11 Points: 1,604, Level: 11 Points: 1,604, Level: 11
Level up: 18%, 246 Points needed
Level up: 18% Level up: 18% Level up: 18%
Activity: 0%
Activity: 0% Activity: 0% Activity: 0%

   
Join Date: Apr 2018
Posts: 217
Rep Power: 4
Sai Manikanta is an unknown quantity at this point
UL: 32.69 gb DL: 70.70 gb Ratio: 0.46
Default 20th-November-2020

Please seed




Reply With Quote
(#47)
Old
Lover Lover is offline
TMR Member
Points: 415, Level: 4
Points: 415, Level: 4 Points: 415, Level: 4 Points: 415, Level: 4
Level up: 65%, 35 Points needed
Level up: 65% Level up: 65% Level up: 65%
Activity: 0%
Activity: 0% Activity: 0% Activity: 0%

   
Join Date: Sep 2020
Posts: 49
Rep Power: 2
Lover is an unknown quantity at this point
UL: 5.27 gb DL: 7.74 gb Ratio: 0.68
My Mood: Asleep
Default 8th-July-2021

Thanks for upload




Reply With Quote
(#48)
Old
DarkWarrior8688 DarkWarrior8688 is offline
New TMR'ian
Points: 54, Level: 1
Points: 54, Level: 1 Points: 54, Level: 1 Points: 54, Level: 1
Level up: 4%, 96 Points needed
Level up: 4% Level up: 4% Level up: 4%
Activity: 0%
Activity: 0% Activity: 0% Activity: 0%

   
Join Date: Jul 2021
Posts: 9
Rep Power: 1
DarkWarrior8688 is an unknown quantity at this point
UL: 5.00 gb DL: 0.00 b Ratio: -
Default 26th-July-2021

Super Share




Reply

Tags
2008, 720p, bymanoj, chapters, dts, dvd9rip, esubs, krishna, x264

Thread Tools
Display Modes

Similar Threads
Thread Thread Starter Forum Replies Last Post
ANDHRUDU (2005) - DVD9Rip - 720P - x264 - DTS - Esubs - Chapters Maruthi673 CAM/TC 12 26th-August-2021 09:31 PM
Seval (2008) - API DVDRip - 720p - x264 - DTS - ESubs - Team TMR J4gg3r DVD Upscales 15 3rd-June-2020 10:20 PM
Krishna (2008) - Telugu - Sri Balaji DVD9 - DTS - AC3 - ESubs - Team TMR J4gg3r DVD-R 35 17th-May-2020 02:57 PM
[Dvd-9] Krishna (2008) Sri Balaji Videos DD & DTS 5.1 Esubs Thedarkaxe Request 4 20th-August-2015 09:50 PM

Posting Rules
You may not post new threads
You may not post replies
You may not post attachments
You may not edit your posts

BB code is On
Smilies are On
[IMG] code is On
HTML code is Off




Powered by vBulletin® Version 3.8.7
Copyright ©2000 - 2021, vBulletin Solutions, Inc.
Ad Management plugin by RedTyger