TAMILMOVIEROCKERS
Ticket Torrents
Go Back   TAMILMOVIEROCKERS > -•: Info Desk :•- > Reports
Reload this Page Reported Post by [email protected]
Reports You can report any issues about threads or anything else.

Reply
 
Thread Tools Display Modes
(#1)
Old
[email protected] M@X-Hon3yHD is offline
New TMR'ian
Points: 11, Level: 1
Points: 11, Level: 1 Points: 11, Level: 1 Points: 11, Level: 1
Level up: 21%, 39 Points needed
Level up: 21% Level up: 21% Level up: 21%
Activity: 11.1%
Activity: 11.1% Activity: 11.1% Activity: 11.1%
   
Join Date: May 2017
Posts: 2
Rep Power: 5
M@X-Hon3yHD is an unknown quantity at this point
UL: 5.00 gb DL: 0.00 b Ratio: -
My Mood: Worried
Default Reported Post by [email protected] - 30th-May-2017

[email protected] has reported a post.

Reason:
Quote:
am [email protected] from Hon3yHD

@ Team CR (Mrpranav31) u r abusing common p2p rules... U downloaded our encoded movie (which was shared on hon3yHD) and now sharing here without giving proper credit.. even u changed the original file name with Team TMR.. its not right..

Its hon3y Encoded movie..


Forum Rules:
11. Share with proper credits, once we get a report against you your account will be banned along with IP.

@Team TMR -- Please Check into this matter.

Best regards
[email protected]
Post: Sivaji (2007) - Tamil 1080p Apl BluRay x264 DTS-HDMA 5.1 - ESub Team TMR
Forum: BD/BR - Rips
Assigned Moderators: Dévil Máy Caré, tkse

Posted by: Mrpranav31
Original Content:
Quote:
Sivaji (2007) - Tamil 1080p Apl BluRay x264 DTS-HDMA 5.1 - ESub Team TMR


***AP International***




Code:
General
Complete name               : Sivaji (2007) - Tamil 1080p Apl BluRay x264 DTS-HDMA 5.1 - ESub Team TMR.mkv
Format                      : Matroska
Format version              : Version 4 / Version 2
File size                   : 18.0 GiB
Duration                    : 3h 8mn
Overall bit rate            : 13.7 Mbps
Encoded date                : UTC 2017-05-20 08:11:31
Writing application         : mkvmerge v8.6.1 ('Flying') 32bit
Writing library             : libebml v1.3.3 + libmatroska v1.4.4

Video
ID                          : 1
Format                      : AVC
Format/Info                 : Advanced Video Codec
Format profile              : [email protected]
Format settings, CABAC      : Yes
Format settings, ReFrames   : 5 frames
Codec ID                    : V_MPEG4/ISO/AVC
Duration                    : 3h 8mn
Bit rate                    : 9 249 Kbps
Width                       : 1 920 pixels
Height                      : 816 pixels
Display aspect ratio        : 2.35:1
Frame rate mode             : Constant
Frame rate                  : 24.000 fps
Color space                 : YUV
Chroma subsampling          : 4:2:0
Bit depth                   : 8 bits
Scan type                   : Progressive
Bits/(Pixel*Frame)          : 0.246
Stream size                 : 12.2 GiB (68%)
Writing library             : x264 core 148 r2744 b97ae06
Encoding settings           : cabac=1 / ref=5 / deblock=1:-1:-1 / analyse=0x3:0x133 / me=umh / subme=9 / psy=1 / psy_rd=1.00:0.15 / mixed_ref=1 / me_range=16 / chroma_me=1 / trellis=2 / 8x8dct=1 / cqm=0 / deadzone=21,11 / fast_pskip=0 / chroma_qp_offset=-3 / threads=12 / lookahead_threads=1 / sliced_threads=0 / nr=0 / decimate=1 / interlaced=0 / bluray_compat=0 / constrained_intra=0 / bframes=3 / b_pyramid=2 / b_adapt=2 / b_bias=0 / direct=3 / weightb=1 / open_gop=0 / weightp=2 / keyint=250 / keyint_min=24 / scenecut=40 / intra_refresh=0 / rc_lookahead=60 / rc=2pass / mbtree=1 / bitrate=9249 / ratetol=1.0 / qcomp=0.60 / qpmin=0 / qpmax=69 / qpstep=4 / cplxblur=20.0 / qblur=0.5 / ip_ratio=1.40 / aq=1:1.00
Language                    : English
Default                     : Yes
Forced                      : No

Audio
ID                          : 2
Format                      : DTS
Format/Info                 : Digital Theater Systems
Format profile              : MA / Core
Mode                        : 16
Format settings, Endianness : Big
Codec ID                    : A_DTS
Duration                    : 3h 8mn
Bit rate mode               : Variable / Constant
Bit rate                    : 4 411 Kbps / 1 509 Kbps
Channel(s)                  : 6 channels
Channel positions           : Front: L C R, Side: L R, LFE
Sampling rate               : 48.0 KHz
Frame rate                  : 93.750 fps (512 spf)
Bit depth                   : 24 bits
Compression mode            : Lossless / Lossy
Stream size                 : 5.81 GiB (32%)
Default                     : Yes
Forced                      : No

Text
ID                          : 3
Format                      : PGS
Muxing mode                 : zlib
Codec ID                    : S_HDMV/PGS
Codec ID/Info               : Picture based subtitle format used on BDs/HD-DVDs
Duration                    : 3h 7mn
Bit rate                    : 14.1 Kbps
Count of elements           : 4540
Stream size                 : 18.8 MiB (0%)
Language                    : English
Default                     : Yes
Forced                      : No

Menu
00:00:00.000                : en:Chapter 01
00:11:01.083                : en:Chapter 02
00:16:37.000                : en:Chapter 03
00:27:35.416                : en:Chapter 04
00:35:40.958                : en:Chapter 05
00:42:13.416                : en:Chapter 06
00:53:18.416                : en:Chapter 07
00:58:59.958                : en:Chapter 08
01:06:58.375                : en:Chapter 09
01:13:15.000                : en:Chapter 10
01:18:29.666                : en:Chapter 11
01:26:10.000                : en:Chapter 12
01:36:55.208                : en:Chapter 13
01:45:05.000                : en:Chapter 14
01:49:59.416                : en:Chapter 15
01:59:15.958                : en:Chapter 16
02:09:00.166                : en:Chapter 17
02:21:00.625                : en:Chapter 18
02:31:44.958                : en:Chapter 19
02:52:21.083                : en:Chapter 20







Source:Minnal





5 Lastest Threads by [email protected]
Thread Forum Last Poster Replies Views Last Post
Reported Post by [email protected] Reports Mr.M 1 318 30th-May-2017 05:00 PM

(#2)
Old
Mr.M's Avatar
Mr.M Mr.M is offline
TMR Member
Points: 108,687, Level: 100
Points: 108,687, Level: 100 Points: 108,687, Level: 100 Points: 108,687, Level: 100
Level up: 0%, 0 Points needed
Level up: 0% Level up: 0% Level up: 0%
Activity: 0%
Activity: 0% Activity: 0% Activity: 0%

I proudly released 668 torrents with 21429 snatches
 
 
Join Date: Aug 2016
Posts: 2,877
Rep Power: 124
Mr.M has a reputation beyond reputeMr.M has a reputation beyond reputeMr.M has a reputation beyond repute
Mr.M has a reputation beyond reputeMr.M has a reputation beyond reputeMr.M has a reputation beyond reputeMr.M has a reputation beyond reputeMr.M has a reputation beyond reputeMr.M has a reputation beyond reputeMr.M has a reputation beyond reputeMr.M has a reputation beyond reputeMr.M has a reputation beyond reputeMr.M has a reputation beyond reputeMr.M has a reputation beyond reputeMr.M has a reputation beyond reputeMr.M has a reputation beyond repute
UL: 75.50 tb DL: 4.89 tb Ratio: 15.43
My Mood: Angelic
Default 31st-May-2017

Sorry Bro Next Time Mean To Encode Member Name .................




Reply

Tags
[email protected], post, reported

Thread Tools
Display Modes

Similar Threads
Thread Thread Starter Forum Replies Last Post
Reported Post by Lglcd Lglcd Reports 0 13th-September-2016 03:20 PM
Reported Post by Sivaraj2905 Sivaraj2905 Reports 0 12th-September-2016 03:25 PM
Reported Post by Seshathri Seshathri Reports 0 11th-September-2016 11:29 AM
Reported Post by Ashmi14 Ashmi14 Reports 0 11th-September-2016 07:48 AM
Reported Post by Bars Bars Reports 0 9th-September-2016 05:00 AM

Posting Rules
You may not post new threads
You may not post replies
You may not post attachments
You may not edit your posts

BB code is On
Smilies are On
[IMG] code is On
HTML code is Off




Powered by vBulletin® Version 3.8.7
Copyright ©2000 - 2021, vBulletin Solutions, Inc.
Ad Management plugin by RedTyger