TAMILMOVIEROCKERS
Ticket Torrents
Go Back   TAMILMOVIEROCKERS > -: Other Releases :- > Other Movies
Reload this Page The.conjuring.the.devil.made.me.do.it.2021.1080p.w eb.h264.TMR
Other Movies Section for Kannada,Punjabi ,Bengali Language.

Reply
 
Thread Tools Display Modes
(#1)
Old
MohanSeeder's Avatar
MohanSeeder MohanSeeder is offline
TMR Member
Points: 5,617, Level: 22
Points: 5,617, Level: 22 Points: 5,617, Level: 22 Points: 5,617, Level: 22
Level up: 14%, 433 Points needed
Level up: 14% Level up: 14% Level up: 14%
Activity: 0%
Activity: 0% Activity: 0% Activity: 0%

I proudly released 25 torrents with 259 snatches
 
 
Join Date: Oct 2014
Posts: 471
Rep Power: 13
MohanSeeder is a glorious beacon of lightMohanSeeder is a glorious beacon of lightMohanSeeder is a glorious beacon of lightMohanSeeder is a glorious beacon of lightMohanSeeder is a glorious beacon of lightMohanSeeder is a glorious beacon of light
UL: 196.12 tb DL: 1.18 tb Ratio: 165.82
My Mood: Cool
HDRIP The.conjuring.the.devil.made.me.do.it.2021.1080p.w eb.h264.TMR - 5th-June-2021






General
Unique ID : 18179224171561733246931720045293107287 (0xDAD30F3C7733DD8069D0425ED067857)
Complete name : D:\The.Conjuring.The.Devil.Made.Me.Do.It.2021.1080 p.WEB.H264-NAISU[rarbg]\The.Conjuring.the.devil.made.me.do.it.2021.1080p. web.h264.TMR.mkv
Format : Matroska
Format version : Version 4
File size : 7.02 GiB
Duration : 1 h 51 min
Overall bit rate mode : Variable
Overall bit rate : 8 979 kb/s
Writing application : mkvmerge v49.0.0 ('Sick Of Losing Soulmates') 64-bit
Writing library : libebml v1.4.0 + libmatroska v1.6.1[/LEFT][/LEFT]

Video
ID : 1
Format : AVC
Format/Info : Advanced Video Codec
Format profile : [email protected]
Format settings : CABAC / 4 Ref Frames
Format settings, CABAC : Yes
Format settings, Reference frames : 4 frames
Codec ID : V_MPEG4/ISO/AVC
Duration : 1 h 51 min
Bit rate mode : Variable
Bit rate : 8 250 kb/s
Maximum bit rate : 12.4 Mb/s
Width : 1 920 pixels
Height : 816 pixels
Display aspect ratio : 2.35:1
Frame rate mode : Constant
Frame rate : 23.976 (24000/1001) FPS
Color space : YUV
Chroma subsampling : 4:2:0
Bit depth : 8 bits
Scan type : Progressive
Bits/(Pixel*Frame) : 0.220
Stream size : 6.28 GiB (89%)
Writing library : x264 core 157 r2965 861cec4
Default : Yes
Forced : No
Color range : Limited
Color primaries : BT.709
Transfer characteristics : BT.709
Matrix coefficients : BT.709

Audio
ID : 2
Format : E-AC-3 JOC
Format/Info : Enhanced AC-3 with Joint Object Coding
Commercial name : Dolby Digital Plus with Dolby Atmos
Codec ID : A_EAC3
Duration : 1 h 51 min
Bit rate mode : Constant
Bit rate : 768 kb/s
Channel(s) : 6 channels
Channel layout : L R C LFE Ls Rs
Sampling rate : 48.0 kHz
Frame rate : 31.250 FPS (1536 SPF)
Compression mode : Lossy
Stream size : 614 MiB (9%)
Language : English
Service kind : Complete Main
Default : Yes
Forced : No
Complexity index : 16
Number of dynamic objects : 15
Bed channel count : 1 channel
Bed channel configuration : LFE

Text #1
ID : 3
Format : UTF-8
Codec ID : S_TEXT/UTF8
Codec ID/Info : UTF-8 Plain Text
Title : English
Language : English
Default : No
Forced : No

Text #2
ID : 4
Format : UTF-8
Codec ID : S_TEXT/UTF8
Codec ID/Info : UTF-8 Plain Text
Title : Latin America Spanish
Language : Spanish
Default : No
Forced : No












Attached Files
File Type: torrent The.Conjuring.the.devil.made.me.do.it.2021.1080p.web.h264.TMR.mkv.torrent (17.8 KB, 2 views), size: 7.02 gb, completed: 1
Name Size
Name Completed % Left Uploaded Downloaded Last Announce

Last edited by MohanSeeder; 5th-June-2021 at 08:03 PM.





5 Lastest Threads by MohanSeeder
Thread Forum Last Poster Replies Views Last Post
The.conjuring.the.devil.made.me.do.it.2021.1080p.w... Other Movies Pinder 1 182 5th-June-2021 08:00 PM
Reseed Petta Bd50 Reseed MohanSeeder 0 146 12th-September-2020 07:24 AM
Paiyaa (2010) - Tamil - API BD50 - DTS HDMA -... Reseed MohanSeeder 4 1047 22nd-June-2017 04:18 AM
Arrambam [2013]-1080p-HD-AVC-x264-TEAM TMR Web HD/ Rips (Free Leech) Ravi Vox 14 1943 21st-September-2015 01:37 AM
7am arivu-bluray video-1080p-dts-avc-team tmr Hi Def & Upscales Stvns 57 7255 3rd-March-2015 06:20 AM

(#2)
Old
Pinder Pinder is offline
TMR Member
Points: 3,927, Level: 18
Points: 3,927, Level: 18 Points: 3,927, Level: 18 Points: 3,927, Level: 18
Level up: 20%, 323 Points needed
Level up: 20% Level up: 20% Level up: 20%
Activity: 9.1%
Activity: 9.1% Activity: 9.1% Activity: 9.1%

   
Join Date: Nov 2014
Posts: 1,114
Rep Power: 10
Pinder will become famous soon enoughPinder will become famous soon enough
UL: 3.05 tb DL: 867.22 gb Ratio: 3.60
Default 5th-June-2021

thanksss




Reply

Tags
ebh264tmr, theconjuringthedevilmademedoitpw, theconjuringthedevilmademedoitpwebh264tmr

Thread Tools
Display Modes

Similar Threads
Thread Thread Starter Forum Replies Last Post
The Conjuring (2013) BRRIP 1080p X264 AC-3 5.1 [Tam-Eng] E-Subs 2GB [Team TMR] DonBro BD/BR/3D Rips 134 2nd-January-2021 03:24 PM
Reseed - The Conjuring (2013) BRRIP 1080p X264 AC-3 5.1 [Tam-Eng] E-Subs 2GB.mkv Tamilcinemaaz Reseed 0 17th-January-2018 01:47 AM
The Conjuring (2013) BRRIP 1080p X264 AC-3 5.1 [Tam-Eng] E-Subs 2GB [Team TMR] NATARAJANMP Reseed 0 16th-February-2017 03:49 AM
The Conjuring (2013) BRRIP 1080p X264 AC-3 5.1 [Tam-Eng] E-Subs 2GB [Team TMR] KARTHIK1 Reseed 0 11th-February-2017 02:06 AM
The Conjuring (2013) BRRIP 1080p X264 AC-3 5.1 [Tam-Eng] E-Subs 2GB [Team TMR] NATARAJANMP Reseed 0 28th-November-2016 04:34 PM

Posting Rules
You may not post new threads
You may not post replies
You may not post attachments
You may not edit your posts

BB code is On
Smilies are On
[IMG] code is On
HTML code is Off




Powered by vBulletin® Version 3.8.7
Copyright ©2000 - 2021, vBulletin Solutions, Inc.
Ad Management plugin by RedTyger