TAMILMOVIEROCKERS

TAMILMOVIEROCKERS (https://www.tamilmovierockers.info/forums/index.php)
-   Free Leech (https://www.tamilmovierockers.info/forums/forumdisplay.php?f=109)
-   -   Georgettans Pooram (2017) Malayalam BRRip 1080p x264 AAC 5.1 ESub Team TMR (https://www.tamilmovierockers.info/forums/showthread.php?t=22052)

Mr.M 24th-July-2017 06:26 PM

Georgettans Pooram (2017) Malayalam BRRip 1080p x264 AAC 5.1 ESub Team TMR
 
1 Attachment(s)
Georgettans Pooram (2017) Malayalam BRRip 1080p x264 AAC 5.1 ESub Team TMR


***Malayalam / BRRip / 1080p / 5.1***

https://extraimage.net/images/2017/0...aaae2383b9.jpg

Code:

General
Complete name              : Georgettans Pooram (2017) Malayalam BRRip 1080p x264 AAC 5.1 ESub Team TMR.mkv
Format                      : Matroska
Format version              : Version 4 / Version 2
File size                  : 2.00 GiB
Duration                    : 2 h 35 min
Overall bit rate            : 1 836 kb/s
Movie name                  : Team TMR
Encoded date                : UTC 2017-07-24 17:09:56
Writing application        : mkvmerge v9.5.0 ('Quiet Fire') 64bit
Writing library            : libebml v1.3.4 + libmatroska v1.4.5

Video
ID                          : 1
Format                      : AVC
Format/Info                : Advanced Video Codec
Format profile              : [email protected]
Format settings, CABAC      : Yes
Format settings, ReFrames  : 4 frames
Codec ID                    : V_MPEG4/ISO/AVC
Duration                    : 2 h 35 min
Bit rate                    : 1 578 kb/s
Width                      : 1 912 pixels
Height                      : 816 pixels
Display aspect ratio        : 2.35:1
Frame rate mode            : Constant
Frame rate                  : 24.000 FPS
Color space                : YUV
Chroma subsampling          : 4:2:0
Bit depth                  : 8 bits
Scan type                  : Progressive
Bits/(Pixel*Frame)          : 0.042
Stream size                : 1.72 GiB (86%)
Title                      : Team TMR
Writing library            : x264 core 148 r2638 7599210
Encoding settings          : cabac=1 / ref=3 / deblock=1:0:0 / analyse=0x3:0x113 / me=hex / subme=7 / psy=1 / psy_rd=1.00:0.00 / mixed_ref=1 / me_range=16 / chroma_me=1 / trellis=1 / 8x8dct=1 / cqm=0 / deadzone=21,11 / fast_pskip=1 / chroma_qp_offset=-2 / threads=6 / lookahead_threads=1 / sliced_threads=0 / nr=0 / decimate=1 / interlaced=0 / bluray_compat=0 / constrained_intra=0 / bframes=3 / b_pyramid=2 / b_adapt=1 / b_bias=0 / direct=1 / weightb=1 / open_gop=0 / weightp=2 / keyint=240 / keyint_min=24 / scenecut=40 / intra_refresh=0 / rc_lookahead=40 / rc=2pass / mbtree=1 / bitrate=1578 / ratetol=1.0 / qcomp=0.60 / qpmin=0 / qpmax=69 / qpstep=4 / cplxblur=20.0 / qblur=0.5 / vbv_maxrate=62500 / vbv_bufsize=78125 / nal_hrd=none / filler=0 / ip_ratio=1.40 / aq=1:1.00
Language                    : Malay
Default                    : Yes
Forced                      : No

Audio
ID                          : 2
Format                      : AAC
Format/Info                : Advanced Audio Codec
Format profile              : LC
Codec ID                    : A_AAC
Duration                    : 2 h 35 min
Bit rate                    : 256 kb/s
Channel(s)                  : 6 channels
Channel positions          : Front: L C R, Side: L R, LFE
Sampling rate              : 48.0 kHz
Frame rate                  : 46.875 FPS (1024 spf)
Compression mode            : Lossy
Delay relative to video    : 9 ms
Stream size                : 285 MiB (14%)
Title                      : Team TMR
Language                    : Malayalam
Default                    : Yes
Forced                      : No

Text
ID                          : 3
Format                      : UTF-8
Codec ID                    : S_TEXT/UTF8
Codec ID/Info              : UTF-8 Plain Text
Duration                    : 2 h 32 min
Bit rate                    : 69 b/s
Count of elements          : 2399
Stream size                : 77.2 KiB (0%)
Title                      : Team TMR
Language                    : English
Default                    : Yes
Forced                      : No

https://extraimage.net/images/2017/0...e4d5134.md.png
https://extraimage.net/images/2017/0...9d087ad.md.png
https://extraimage.net/images/2017/0...e0f2f71.md.png
https://extraimage.net/images/2017/0...eb0eb67.md.png
https://extraimage.net/images/2017/0...d3cbb0a.md.png
https://extraimage.net/images/2017/0...f374db7.md.png
https://extraimage.net/images/2017/0...c276fae.md.png

Ajayk348 24th-July-2017 06:52 PM

Thanks for sharing

Saski 24th-July-2017 07:15 PM

Thanks ........................

TeaM ReleaseR 24th-July-2017 07:59 PM

thanx nice release

MasssBabu 25th-July-2017 01:37 AM

Thanks for the good share

Shahed 25th-July-2017 02:38 AM

thanks for share

Babusha82 25th-July-2017 02:51 AM

Thank you bro

Tamil Star 25th-July-2017 03:03 AM

thanx nice release

RKS 25th-July-2017 03:22 AM

many thanks bro

Kakoose 25th-July-2017 08:43 AM

Thanks for share


All times are GMT +1. The time now is 07:05 PM.

Powered by vBulletin® Version 3.8.7
Copyright ©2000 - 2021, vBulletin Solutions, Inc.
Ad Management plugin by RedTyger